Partyflock

cue files voor Gizmo- harder Mach 3??

 
wie heeft ze?? :)

heb de cds nu wel, maar de cues zouden ook welkom zijn :)
ERFORMER "Unknown Artist"
TITLE "Unknown Title"
FILE "01-va-harder_mach_3__mixed_by_dj_gizmo-cd1-2002-mim.mp3" MP3
TRACK 01 AUDIO
TITLE "Track01"
PERFORMER "Unknown Artist"
INDEX 01 00:00:00
TRACK 02 AUDIO
TITLE "Track02"
PERFORMER "Unknown Artist"
INDEX 01 00:11:04
TRACK 03 AUDIO
TITLE "Track03"
PERFORMER "Unknown Artist"
INDEX 01 06:02:51
TRACK 04 AUDIO
TITLE "Track04"
PERFORMER "Unknown Artist"
INDEX 01 10:37:41
TRACK 05 AUDIO
TITLE "Track05"
PERFORMER "Unknown Artist"
INDEX 01 16:04:39
TRACK 06 AUDIO
TITLE "Track06"
PERFORMER "Unknown Artist"
INDEX 01 22:30:74
TRACK 07 AUDIO
TITLE "Track07"
PERFORMER "Unknown Artist"
INDEX 01 27:56:23
TRACK 08 AUDIO
TITLE "Track08"
PERFORMER "Unknown Artist"
INDEX 01 33:45:68
TRACK 09 AUDIO
TITLE "Track09"
PERFORMER "Unknown Artist"
INDEX 01 38:18:70
TRACK 10 AUDIO
TITLE "Track10"
PERFORMER "Unknown Artist"
INDEX 01 44:00:50
TRACK 11 AUDIO
TITLE "Track11"
PERFORMER "Unknown Artist"
INDEX 01 49:09:19
TRACK 12 AUDIO
TITLE "Track12"
PERFORMER "Unknown Artist"
INDEX 01 54:33:47
TRACK 13 AUDIO
TITLE "Track13"
PERFORMER "Unknown Artist"
INDEX 01 58:51:13
TRACK 14 AUDIO
TITLE "Track14"
PERFORMER "Unknown Artist"
INDEX 01 62:32:72
TRACK 15 AUDIO
TITLE "Track15"
PERFORMER "Unknown Artist"
INDEX 01 66:25:39
PERFORMER "Unknown Artist"
TITLE "Unknown Title"
FILE "02-va-harder_mach_3__mixed_by_dj_gizmo-cd2-2002-mim.mp3" MP3
TRACK 01 AUDIO
TITLE "Track01"
PERFORMER "Unknown Artist"
INDEX 01 00:00:00
TRACK 02 AUDIO
TITLE "Track02"
PERFORMER "Unknown Artist"
INDEX 01 00:17:20
TRACK 03 AUDIO
TITLE "Track03"
PERFORMER "Unknown Artist"
INDEX 01 05:29:14
TRACK 04 AUDIO
TITLE "Track04"
PERFORMER "Unknown Artist"
INDEX 01 10:40:04
TRACK 05 AUDIO
TITLE "Track05"
PERFORMER "Unknown Artist"
INDEX 01 13:51:07
TRACK 06 AUDIO
TITLE "Track06"
PERFORMER "Unknown Artist"
INDEX 01 19:27:35
TRACK 07 AUDIO
TITLE "Track07"
PERFORMER "Unknown Artist"
INDEX 01 22:44:50
TRACK 08 AUDIO
TITLE "Track08"
PERFORMER "Unknown Artist"
INDEX 01 26:14:12
TRACK 09 AUDIO
TITLE "Track09"
PERFORMER "Unknown Artist"
INDEX 01 29:49:40
TRACK 10 AUDIO
TITLE "Track10"
PERFORMER "Unknown Artist"
INDEX 01 33:57:61
TRACK 11 AUDIO
TITLE "Track11"
PERFORMER "Unknown Artist"
INDEX 01 38:39:42
TRACK 12 AUDIO
TITLE "Track12"
PERFORMER "Unknown Artist"
INDEX 01 42:26:38
TRACK 13 AUDIO
TITLE "Track13"
PERFORMER "Unknown Artist"
INDEX 01 47:32:65
TRACK 14 AUDIO
TITLE "Track14"
PERFORMER "Unknown Artist"
INDEX 01 51:43:09
TRACK 15 AUDIO
TITLE "Track15"
PERFORMER "Unknown Artist"
INDEX 01 56:07:53
TRACK 16 AUDIO
TITLE "Track16"
PERFORMER "Unknown Artist"
INDEX 01 60:16:23
TRACK 17 AUDIO
TITLE "Track17"
PERFORMER "Unknown Artist"
INDEX 01 63:30:56
TRACK 18 AUDIO
TITLE "Track18"
PERFORMER "Unknown Artist"
INDEX 01 68:32:05
Ik heb het met het programma Nero gedaan.

je convert dus eerst die mp3 die je nu waarschijnlijk hebt om naar WAVE. Dit levert een file op van +_ 730 mb ofzo.

deze laad je in nero. doe je properties
.splits en indexes.

Gaat hij tijdje rekenen. en op 1 gegeven moment is hij klaar en zie je de volledige cd in een soort grafiek uitgebeeld. dan doe je split gewoon willekeurige plek. daarna edit split.

en dan voer je dus al die splits in waar dus de nieuwe nummers moeten beginnen. Is ff een gedoe maar je wil toch wel wat moeite doen voor een cd van 21:88 euro.

Er zijn ook proggrama's waarmee je in 1 x die cues kan laden maar die heb ik niet en gebruik ik dus ook niet.
ik heb ook nero, en je hoeft m niet om te zetten naar wav ofzo... maar ik wil de correcte splits er in hebben
ik is dom jonge, de splits staan hierboven al :)

doe ik het wel op die manier :)

thanx pal
wrom zo moeilijk doen gekhous???
laad zo'n cue file in cdrwin en brand die cd :)
je kan die cue's ook in nero laden.

naar file burn image en cue tje selecteren en het boeit nero ook niet als de file mp3 is.
komtie gekhous
Np graag gedaan Gekhouse alleen doe je de andere manier al zo te zien! cdrwin heb ik ook geprobeerd maar die gaf conflict met mn brander.
jup, de luie manier :)

heb m gewoon met nero gedaan trouwens

danx anyway