Partyflock

cue files

 
ik hoor van veel mensen dat ze cue files maken om een live set in stukken te delen.­ Is er een site ofzo waar je deze kan vinden en zo ja hoe pas je het toe.­

bv voor de set DJ Abi- Hardstyle Mix 2002
euh, zelf luisteren wanneer de overgang is, de tijd noteren en daarna de cue file zelf maken ;)
en hoe maak je zo`n cue file
FILE "*.­mp3"­ MP3
TRACK 01 AUDIO
INDEX 01 00:00:00
TRACK 02 AUDIO
INDEX 01 04:54:00

zo ziet een cue file eruit, veel anders dan dit moet hij er niet uitkomen te zien.­ Je moet tijden/tracks en de filename veranderen.­ That´s all..­
ik ga het wel ff proberen, weet je een goed proggramma ervoor
als je nu even naar http://www.­regeert.­nl/cuesheet/
gaan daar staan verschillende cue sheets op.­ er staat ook wel een demo of zo op hoe je ze maken moet en welke programma's je er voor gebruiken kunt.­ Ik gebruik voor liveste's een cuesheet die het verdeelt in stukjes van 5 minuten.­ lekker makkelijk
mja tis maar wat je gewend bent hé :)
kwil wel dat mn sets op t juiste moment zijn verdeelt zijn en niet om de 5min. terwijl het pas 2 min. later moet zijn. maar het kost wel wat meer moeite :)
heb je gelijk aan, maar als ik al die live-sets eerst 3 x moet gaan luisteren om te horen waar de overgang zit en ze dan moet splitten om ze nog een keer te luisteren .....

neuh doe ik maar niet, wil ze gewoon door kunnen spoelen. Het gaat mij er niet om of hij precies bij het nummer overgaat. Ik luister ook niet naar de "de overgangen" maar naar de muziek :p :-p

Als het nou een set is die ik elke dag luister dan zeg ik ja ! maar meestal luister ik ze in het begin een paar keer dan gaan ze op de stapel bij de rest. Meestal luister ik ze toch in MP3 zowel thuis als in de auto heb ik mp3 dus.... B)

Maar no offense !!! 8)
Wat is eigenlijk het voordeel van een liveset in stukken splitsen? Dan doe je er toch alleen maar langer over voordat je hem gedownload hebt, omdat je dan 10 keer op 'download' moet klikken? :)
2 gold: even uitleg wat een cue-file is ! Als je een liveset download is het meestal 1 lang MP3 bestand.­ Als je van het MP3 bestand nu een audio cd's wil branden kun je dat op een aantal manieren doen, je laat de lenget van de file zoals die is en maakt er 1 lange audio cd van met als nadeel dat als je bv van de cd je nu de 1e 20 minuten luistert en je haalt hem uit de cd-speler en je wil hem de volgende keer luisteren dan moet je weer vooraf aan beginnen omdat je niet met de tracks vooruit kunt, je kunt wel "­spoelen"­ maar das erg vervelend.­

Je kunt ook je brander een stukje informatie geven over het punt/tijdstip waarop je van track 1 naar track 2 en van track 2 naar track 3 enz.­ en dat stukje informatie schrijf je in een Cue-file, dit is een simpel text bestandje met als extentie .­cue ! Het voordeel van een cue-file is dat je de overgang niet hoort en als je het MP3 bestand voor dat je het brand in stukken gaat knippen hoor je de overgang wel.­

zie voor voorbeelden en verdere uitleg http://www.­regeert.­nl/cuesheet/

Snaps ?
ik heb dit nu dat is goed toch:

TRACK 01 AUDIO
TITLE "­track1"­
PERFORMER "­Dj Abi"­
INDEX 01 00:00:00
TRACK 02 AUDIO
TITLE "­track 2"­
PERFORMER "­Dj Abi"­
INDEX 01 05:15:00
TRACK 03 AUDIO
TITLE "­track 3"­
PERFORMER "­Dj Abi"­
INDEX 01 09:17:00
TRACK 04 AUDIO
TITLE "­track 4"­
PERFORMER "­Dj Abi"­
INDEX 01 12:37:00
TRACK 05 AUDIO
TITLE "­track 5"­
PERFORMER "­Dj Abi"­
INDEX 01 17:52:00
TRACK 06 AUDIO
TITLE "­track 6"­
PERFORMER "­Dj Abi"­
INDEX 01 21:38:00
TRACK 07 AUDIO
TITLE "­track 7"­
PERFORMER "­Dj Abi"­
INDEX 01 26:18:00
TRACK 08 AUDIO
TITLE "­track 8"­
PERFORMER "­Dj Abi"­
INDEX 01 30:25:00
TRACK 09 AUDIO
TITLE "­track 9"­
PERFORMER "­Dj Abi"­
INDEX 01 36:44:00
TRACK 10 AUDIO
TITLE "­track 10"­
PERFORMER "­Dj Abi"­
INDEX 01 42:07:00
TRACK 11 AUDIO
TITLE "­track 11"­
PERFORMER "­Dj Abi"­
INDEX 01 46:01:00
TRACK 12 AUDIO
TITLE "­track 12"­
PERFORMER "­Dj Abi"­
INDEX 01 53:05:00
TRACK 13 AUDIO
TITLE "­track 13"­
PERFORMER "­Dj Abi"­
INDEX 01 56:35:00
TRACK 14 AUDIO
TITLE "­track 14"­
PERFORMER "­Dj Abi"­
INDEX 01 59:53:00
TRACK 15 AUDIO
TITLE "­track 15"­
PERFORMER "­Dj Abi"­
INDEX 01 64:05:00
TRACK 16 AUDIO
TITLE "­track 16"­
PERFORMER "­Dj Abi"­
INDEX 01 67:35:00

of mis ik nog wat.­

En dan wat moet ik dan doen om op het op cd branden want dat moet toch kunnen.­ Of heb je daar echt een splitter voor nodig, zo ja wat is een goede splitter.­
cdrwin...

wel maar 1x speed branden zonder code, maar ik mag je niet aanmoedigen een crack te halen, dus dat doe ik nie ;)