Partyflock

Cue file????

 
Heeft er iemand toevallig voor mij de .cue file van Houseqlassics - Mixed by Dana & Pavo???
Ikwil vanavond mijn HD op schonen en allerlei cd's branden, maar deze cue file hebbik dus nie meer :-( Zou iemand mij kunnen helpen? :-)

Greetz!!
Als je deze bedoelt: 00-va_-_houseqlassics_-_mixed_by_lady_dana_and_dj_pavo-2001-twcmp3


FILE "01-HouseQlassics - Mixed by Dana & Pavo-TWC.wav" WAVE
TRACK 01 AUDIO
INDEX 01 00:00:00
TRACK 02 AUDIO
INDEX 01 06:29:26
TRACK 03 AUDIO
INDEX 01 08:36:67
TRACK 04 AUDIO
INDEX 01 12:11:63
TRACK 05 AUDIO
INDEX 01 14:08:02
TRACK 06 AUDIO
INDEX 01 17:56:26
TRACK 07 AUDIO
INDEX 01 22:27:23
TRACK 08 AUDIO
INDEX 01 25:14:67
TRACK 09 AUDIO
INDEX 01 28:22:40
TRACK 10 AUDIO
INDEX 01 32:05:30
TRACK 11 AUDIO
INDEX 01 35:39:39
TRACK 12 AUDIO
INDEX 01 37:32:02
TRACK 13 AUDIO
INDEX 01 41:17:07
TRACK 14 AUDIO
INDEX 01 44:41:65
TRACK 15 AUDIO
INDEX 01 48:48:35
TRACK 16 AUDIO
INDEX 01 52:43:65
TRACK 17 AUDIO
INDEX 01 57:03:32
TRACK 18 AUDIO
INDEX 01 60:33:18
TRACK 19 AUDIO
INDEX 01 63:40:59
Ikheb deze:
01-va_-_houseqlassics_-_mixed_by_lady_dana_and_dj_pavo-twc.mp3

Ikdenk wel dat ut dezelfde is... :) Zou je mij die aub willen mailen? Me mail is: boyligtenberg@hotmail.com :-)
iig alvast bedankt!

Greeeetz!
OK, gemaild!