Partyflock

Cue Sheets

 
Forumonderwerp · 16455
Ik weet het, dit onderwerp is al eens geweest. Maar ik wil toch weten hoe ik gebruik kan maken van cue sheets in CDRWin.
geen flauw idee, maar ik heb musicutter en dat knipt mp3's in stukkies voor je, ik vind het super werken iig
hoor wel als je het moet hebben
Haha laat maar, ik heb het al uitgevonden met Nero. Werkt ook uitstekend :)
Ik moet due msuciutter hebben. Want me f*cking discman blijft bij nrs hangen als ik ze brand met cue sheet...
Losse nrs zijn geen probleem. Dussuh als je hem zou willen sturen ofzo? GRAAG !! :D
dan moet je een cue bestandje maken met bv. het kladblok.
komt er dan zo ongeveer uit te zien:

FILE C:\mix.WAV WAVE
TRACK 01 AUDIO
INDEX 01 00:00:00
TRACK 02 AUDIO
INDEX 01 06:04:00
TRACK 03 AUDIO
INDEX 01 10:18:00
TRACK 04 AUDIO
INDEX 01 14:34:00
TRACK 05 AUDIO
INDEX 01 19:03:00
TRACK 06 AUDIO
INDEX 01 21:46:00
TRACK 07 AUDIO
INDEX 01 26:25:00

de bovenste regel moet je zeggen hoe het bestand heet en in welke map ie staat.

Als je alle tijden goed hebt staan
sla dit bestand op met de extensie .cue erachter

Dit laad je dan weer in cdrwin en dan moet ie het doen.
laatste aanpassing
Misschien ook handig om te weten:

http://www.regeert.nl/cuesheet/

;-)