Partyflock

Id&t hardtrance (cd)

 
Ik heb net ff die cd's ged-load van Id&t hardtrance, staan aardig wat kutnummers op maar ook een paar moeilijk harde ik ben weer blij nu:D Wie kent die cd wat vind je ervan?
Ik heb hem niet, ken wel veel nummers van de tracklist :), beetje te soft zijn sommige wel vind ik voor de noemer 'hardtrance' ('hardtrance' is volgens mij de duitse hardhouse, oftewel het echte beukwerk, dan moet je niet met Tiesto aankomen!)
das waar maar tiesto staat op nummer 1 met zo'n mix van gielen ik vind dat nummer ook te commercieel te vaak gehoord ook maar dj's als yoji biomehanika dj scott en mark norman zijn wel goed
echt rare mensen op pf
Ik heb em vanmiddag gekocht en vind em zékers wel OK!!! Lekkere stuiternummers hoor!!!

Maar ieder zijn smaak he...:p
Ik vind m een beetje tegenvallen.­
Denk dat mensen vaak teveel van een cd of feest verwachten...Ik probeer me er meestal niet teveel bij voor te stellen en dan valt het vaak reuze mee :d:d:d
2 qdance waarom dload je die cd niet gewoon man?
Doe ik wel es...­maar soms koop ik ze gewoon...­
Waar kan je deze downen?
weet je hoe ik het altijd doe: Het is heel simpel

Ga naar http://21century-mp3.­com/ klik op full albums dan op een cd cover (maak nie uit op welke) en dan komen er meer d-loadbare cd's te staan, gewoon aanklikken en d-loaden...­
Uitpakken is he makkelijkst in winrar (extract to here doe ik altijd) en dan heb je die cd binnen no time...­
Wel ff die beveiligingsding ja klikken
Later
ja dat kan idd kamikaze. kwam laatst ook op die site en dacht ff een album van DJ rush te downen als test. Stond alleen geen Dj voor Rush en bleek Rush dus een of andere gare softrockband te zijn. :S

Id T hardtrance heb ik intussen in me bezit. Heeft iemand de CUEfile??!!!!!!
Cue file al iemand???
FILE "­01-id-t_­hardtrance_­cd1-mim.­mp3"­ MP3
TRACK 01 AUDIO
INDEX 01 00:00:00
TRACK 02 AUDIO
INDEX 01 06:37:56
TRACK 03 AUDIO
INDEX 01 11:08:62
TRACK 04 AUDIO
INDEX 01 16:07:01
TRACK 05 AUDIO
INDEX 01 20:04:18
TRACK 06 AUDIO
INDEX 01 24:24:39
TRACK 07 AUDIO
INDEX 01 28:01:49
TRACK 08 AUDIO
INDEX 01 32:45:67
TRACK 09 AUDIO
INDEX 01 37:43:10
TRACK 10 AUDIO
INDEX 01 43:47:51
TRACK 11 AUDIO
INDEX 01 49:51:63
TRACK 12 AUDIO
INDEX 01 55:48:48
TRACK 13 AUDIO
INDEX 01 63:31:34
TRACK 14 AUDIO
INDEX 01 69:40:05



FILE "­02-id-t_­hardtrance_­cd2-mim.­mp3"­ MP3
TRACK 01 AUDIO
INDEX 01 00:00:00
TRACK 02 AUDIO
INDEX 01 05:23:45
TRACK 03 AUDIO
INDEX 01 10:59:44
TRACK 04 AUDIO
INDEX 01 15:36:54
TRACK 05 AUDIO
INDEX 01 21:03:60
TRACK 06 AUDIO
INDEX 01 26:00:17
TRACK 07 AUDIO
INDEX 01 29:37:14
TRACK 08 AUDIO
INDEX 01 35:52:74
TRACK 09 AUDIO
INDEX 01 39:24:60
TRACK 10 AUDIO
INDEX 01 42:18:17
TRACK 11 AUDIO
INDEX 01 48:04:33
TRACK 12 AUDIO
INDEX 01 51:59:58
TRACK 13 AUDIO
INDEX 01 56:01:00
TRACK 14 AUDIO
INDEX 01 59:18:38
TRACK 15 AUDIO
INDEX 01 63:02:36
Thanx ernestow! heb alleen niet de mimrelease maar ik kom er wel uit!
Bas en ram, waarom shokk insn't it strange flutlicht remix?

Doe dan gewoon krazy nut remix!!! die is 10 x beter en het is mn favonummer!!!!!!!!!!!!!