Partyflock

Cd shockers

 
wie heeft er de nieuwe cd van SHOCKERS???
Ik kan je aanraden:Koop hem niet!!!Slechte nummers en slecht geluid!!
De dvd is wel leuk die er bij zit!
van een paar dj's die commentaar geven net als de dvd die bij innercity en trance energie zat,wel leuk om terug te zien!!!
ze kunnen beter doen dat je voor de dvd betaald en dat je de twee cd's er GRATIS bij krijgt.­
inderdaad wat een ongelofelijke klote cd zeg
echt een kut cd...­die DVD nog niet gezien..­
He lui, het valt allemaal wel mee.­
Inderdaad CD1 is na 2 keer luisteren goed als onderzetter.­ Maar CD2 kent best een paar lekkere nummers.­ Maar een echte topper is het niet, CD van Qlimax is een stuk beter.­
De DVD vind ik trouwens tegen vallen.­
Ik wilde die cd kopen maar als het z'n kut cd is hoef ik hem niet natuurlijk.­ Wel jammer want had die DVD graag gezien! Staat er nog wat van Dana op die DVD?
DVD stelt niks voor die cd valt ook tegen, als iemand nou effe vertelt hoe FTP werkt :S dan......
Die CD is echt klote! Cd1 is niet mijn smaak maar cd 2 zou hardstyle moeten zijn, dus zou het wel goed komen.­ Nou de nummers die je hardstyle mag noemen zijn oude nummers en de rest is hardhouse.­ De dvd is wel grappig maar na 2 keer heb je die ook wel gezien.­ En dat voor 24 euro! Stelletje afzetters bij id-t
CD1 wel vet..­ heb net die CD gekocht..­ 2 nog niet geluisterd

DVD ziet er ook wel leuk uit
2 Snackyman:
Using the FTP protocol, you can transfer files from remote servers to your computer, or even to another remote server!!! FlashFXP makes it easy to update your web site, download files from the company server, or even download files from the internet that always seem to FAIL using your web browser. It allows you to transfer files between two sites (FXP), resume incomplete downloads, synchronize directories, schedule multiple tasks, and much, much more!

Deze informatie komt af van de flashfxp site, 1 van de meeste gebruikte ftp client.
Hey Wilbert alles kids, zal best wel:)
2 vriendinnen die meewaren met ons staan op de DVD. Je weet wel, die blonde en die 1ne met die rooie vlechtjes. Had je misschien al wel gezien. Cd's vallen zekers tegen :( alleen de Hardstyle is wel relaxt:)
K spreek je latersss.
CD1
01.­ Marco Carola - Avalanche
02.­ K-Cee - They Only Come Out At Night
03.­ Sven Vath - Mindgames
04.­ Aron Akira - Mutekki 6
05.­ Kreislauf - Shapeshifter
06.­ John Selway - Edge Of Now
07.­ Innerdrive - Secret Technique
08.­ Scratch Message - Ice Breaker
09.­ Da Goose - Cobra's Bite
10.­ Daze Maxim - Remis Playaz
11.­ S.­I.­ Futures - Eurostar
12.­ Vitalic - La Rock
13.­ Gaiden - Point Blank
14.­ DJ Rush - Get On Up
15.­ Speedy J - Krekc
16.­ Subhead - Buthius Rage
17.­ Johannes Heil - Paranoid Dancer
18.­ TGV - Nighttrain
19.­ Tiga &­ Zyntherius - Sunglasses At Night

CD2
01.­ Midi 4 - Miss You
02.­ Schalldruck - Turntable Junky
03.­ Dj Isaac - On The Edge
04.­ Marcel Woods - Drama
05.­ Kaylab - Pray No Pop
06.­ Genlog - Mockmoon 2002
07.­ Bk &­ Nick Sentience - Flash
08.­ Organ Donors - Locked Tight
09.­ Ramirez - Acelerando
10.­ Unix - The Spirit Of God
11.­ Jam-X &­ De Leon - Can You Dig It?
12.­ Showtek - Controller
13.­ Captain Tinrib - I've Got Ya
14.­ Nick Lunn +­ Paul Jones - Conspiracy
15.­ Warmduscher - Hardcore Will Never Die
16.­ Überdruck - Now Or Never
17.­ Deep Project - The Fly
He Alias.­
Ik heb die meiden niet gezien hoor met wie jij was op SHOCKERS,of ik was zo ver heen dat ik het niet meer weet.­
issie zo slecht????
hm kwou m net gaan kope die cd!

hoeveel kost ie?
Hij is vet heb hem net ff gedownload heheheh
Ik vind de CD van Qlimax tien keer beter!!!Veel hader en geen Techno!!!
Cd was dacht ik 23 euro,als ik het goed heb.­
cd is wel nice, maar er zijn idd wel betere cd's. Heeft er iemand al de shockers dvd gezien? Dies best nice :)
Ja ik heb de dvd gezien,Dana is wel leuk vooral dat nummer die je hoort alleen jammer dat het net ophoud wanneer het mooiste van het nummer komt!!
cd 1 begint al super en is best een goede cd, cd 2 nog steeds niet geluisterd..­dvd is wel relaxed niks speciaals en duurt maar 23 minuten interview gehalte is van zeer laag kleuterniveau en het engels is belabberd vandaar dat dave clarke ook zo raar reageerd..­
Ik zag het ja hoe hij antwoorden,ha ha en reageerde heel raar!
ik weet niet wat je nou zit te zeiken, maar voor een party-CD is de techno echt wel goed.­ en de hardstyle is niet het Qlimax gehalte maar toch ook niet echt slecht.­ maar cd2 is idd meer richting de hardhouse.­
he Wilbert, ik heb idd wel eens extremere audio gehoord.­ Qlimax cd is ckers betre als Shockers.­
wist je dat onze vrienengroep erop staat, alleen alias staat er niet op.­
mazzel Househof
kvind cd1 ook beter dan cd2, de nummers die op cd2 staan heb ik namelijk al genoeg gehoord de laatste tijd en dat was bij cd1 niet t geval.­Cd2 is gewoon hardhouse in feite
Kan kloppe Wilbert, je was te druk met:BOUNCE::).
Was wel relaxt feesie. Househof zei t al k sta er niet op G.Z.D.(god zij dank). K hou helemaal niet van camera's:). Mzzl.
ik heb househof niet gezien op de Dvd,bij welke dj kwam hij in beeld dan en welke zaal??
het is ook maar in een "­flitz"­ maar het is rond de 4 min.­ bij duomondes(??) of hoe je het ook schrijft en ik weet niet in welke zaal zij draaiden.­
Heeft iemand al ergens een Cue file gevonden voor de 2e (Hardstyle) cd??
kvin het wel een goeie cd...­
Hele vette cd:)
2 JeRoEn:

FILE "­201-va-shockers_­2002.­mp3"­ MP3
TRACK 01 AUDIO
INDEX 01 00:00:00
TRACK 02 AUDIO
INDEX 01 04:22:57
TRACK 03 AUDIO
INDEX 01 07:56:24
TRACK 04 AUDIO
INDEX 01 12:32:40
TRACK 05 AUDIO
INDEX 01 17:09:17
TRACK 06 AUDIO
INDEX 01 21:27:38
TRACK 07 AUDIO
INDEX 01 26:43:18
TRACK 08 AUDIO
INDEX 01 31:25:62
TRACK 09 AUDIO
INDEX 01 35:28:50
TRACK 10 AUDIO
INDEX 01 39:46:19
TRACK 11 AUDIO
INDEX 01 44:07:19
TRACK 12 AUDIO
INDEX 01 49:22:66
TRACK 13 AUDIO
INDEX 01 52:42:19
TRACK 14 AUDIO
INDEX 01 57:21:05
TRACK 15 AUDIO
INDEX 01 63:12:56
TRACK 16 AUDIO
INDEX 01 66:18:41
TRACK 17 AUDIO
INDEX 01 70:47:71

open notepad, c/p en save as *.­cue
2 Walt: Hahaha!!! Showtek he vet nummertje ;-)
track van showtek hebben ze ook in de reclame voor de cd gebruikt (die op TMF en MTV redelijk vaak voorbij komt).

Is een Vette plaat trouwens :-)