Partyflock

cue-file werkt niet

 
Forumonderwerp · 11908
ik heb net white edition gedownload maar als ik em wil branden werkt het niet...

weten jullie misschien wat er mis is, heb ook andere bekeken maar zie zelf niks

_____________________________________________
PERFORMER "VA"
TITLE "Sensation White Edition-2CD"
FILE "01-va-sensation_white_edition-cd1-2002-mim.mp3" MP3
TRACK 01 AUDIO
TITLE "Fairytale"
PERFORMER "Sensation Intro"
INDEX 01 00:00:00
TRACK 02 AUDIO
TITLE "Magik Journey"
PERFORMER "DJ Tiesto"
INDEX 01 01:58:44
TRACK 03 AUDIO
TITLE "G-Licious"
PERFORMER "G-Spott"
INDEX 01 06:07:12
TRACK 04 AUDIO
TITLE "Dub Wav"
PERFORMER "Prepetuous Dreamer"
INDEX 01 10:57:11
TRACK 05 AUDIO
TITLE "Diving5"
PERFORMER "4 Strings"
INDEX 01 17:30:47
TRACK 06 AUDIO
TITLE "Highlander (Ralpie B's Massive Mix)"
PERFORMER "Taste Experience"
INDEX 01 21:11:43
TRACK 07 AUDIO
TITLE "Monkey Forrest"
PERFORMER "Midway"
INDEX 01 25:37:24
TRACK 08 AUDIO
TITLE "Say Yes"
PERFORMER "DJ Albert vs Precision"
INDEX 01 31:13:36
TRACK 09 AUDIO
TITLE "Lights Of Fire"
PERFORMER "Khemistry"
INDEX 01 35:33:24
TRACK 10 AUDIO
TITLE "Devotion (Tantana Remix)"
PERFORMER "The Mystery"
INDEX 01 38:31:08
TRACK 11 AUDIO
TITLE "Deep Sea (Martin Eyerer Remix)"
PERFORMER "Aquanuts"
INDEX 01 43:55:58
TRACK 12 AUDIO
TITLE "In The Beginning (Ferry Corsten Remix)"
PERFORMER "Roger Goode"
INDEX 01 49:13:14
TRACK 13 AUDIO
TITLE "Moonshine (Syhphony Of Strings Remix)"
PERFORMER "Project Medusa vs Exor"
INDEX 01 53:32:40
TRACK 14 AUDIO
TITLE "Toploader"
PERFORMER "Driftwood"
INDEX 01 57:24:43
TRACK 15 AUDIO
TITLE "Dreaming Of You (Svenson & Gielen Remix)"
PERFORMER "The Thrillseekerst"
INDEX 01 62:38:39
TRACK 16 AUDIO
TITLE "Too Late To Run (Armin Van Buuren Remix)"
PERFORMER "Shane"
INDEX 01 66:30:41
TRACK 17 AUDIO
TITLE "Do You Believe"
PERFORMER "Sensation Outro"
INDEX 01 72:18:44
_________________________________________________

dan zeg tie dat er een fout zit in LINE 3, maar ik kom er niet uit wat er fout aan is...
Naam van de mp3 komt ook overeen met de file die de cue-file moet splitsen..

hoop dat jullie me kunnen helpen..

gegroet,

Frank
welke extensie heeft het bestand dat je wilt branden?
*.cue en de file die erbij zit is gewoon een mp3, daarom vind ik het ook zo vreemd.

(line 3- file nog accesable)
laatste aanpassing
dus als ik het goed begrijp heb je 1 mp3-file en een .cue die de .mp3 in stukken op de cd zet?

ik wist niet dat dat mogelijk was, maar zou heel goed kunnen hoor

je zou de naam van dat nummer kunnen veranderen, misschien dat deze naam telang is.
laatste aanpassing
it is worth a try...
haalt niks uit om de naam kleiner te maken, blijft dezelfde error geven...
jammers dit weer, ik zit dus nu met 2 grote mp3's opgescheept.
laatste aanpassing
jah. das wel minder

sorry, maar kweet hier verder nix van (brand mp3's altijd gewoon als mp3's, vandaar)

Hoop dat het je als nog lukt
THANX HOOP OOK DAT HET NOG LUKT EN ANDERS HEB IK PECH DAN MOET IK EM MAAR ALS 1 FILE LUISTEREN...