Partyflock

.cue file zelf maken... geeft steeds error :( (2de poging)

 
Forumonderwerp · 10997
Dit is dus mijn .cue file:

-------------------------------------------------


PERFORMER "DJ Shadowzone"
TITLE "My style is hardstyle volume 1"
FILE "01_Dj_Shadowzone_-_My_Style_is_Hardstyle_Volume_1-****.mp3" MP3
TRACK 01 AUDIO
TITLE "Showtek - Controller (Dj Duro mix)"
PERFORMER "DJ Shadowzone"
INDEX 01 00:00:00
TRACK 02 AUDIO
TITLE "Ard und Jorn - 16 (Dj Nagoom remix)"
PERFORMER "DJ Shadowzone"
INDEX 01 06:38:54
TRACK 03 AUDIO
TITLE "Kai Tracid - Trance and Acid (Derb remix)"
PERFORMER "DJ Shadowzone"
INDEX 01 11:15:23
TRACK 04 AUDIO
TITLE "Atlantic Wave - The Creation (Original Banging remix)"
PERFORMER "DJ Shadowzone"
INDEX 01 16:37:70
TRACK 05 AUDIO
TITLE "Tuneboy - Housenation (Da Kicker strikes again)"
PERFORMER "DJ Shadowzone"
INDEX 01 21:26:53
TRACK 06 AUDIO
TITLE "Zenith vs Avex - Scream (Main Club mix)"
PERFORMER "DJ Shadowzone"
INDEX 01 26:56:01
TRACK 07 AUDIO
TITLE "Max B Grant - Birthanthem"
PERFORMER "DJ Shadowzone"
INDEX 01 31:38:20
TRACK 08 AUDIO
TITLE "Cosmic Gate - The Truth (Dj Isaac remix)"
PERFORMER "DJ Shadowzone"
INDEX 01 35:38:06
TRACK 09 AUDIO
TITLE "Dj Stardust - Stompin Jack Flash (Gaida remix)"
PERFORMER "DJ Shadowzone"
INDEX 01 41:51:89
TRACK 10 AUDIO
TITLE "Arome - Hands up (Dj Scot Project remix)"
PERFORMER "DJ Shadowzone"
INDEX 01 47:52:24
TRACK 11 AUDIO
TITLE "Technoboy - Harddrive (Lesson 2)"
PERFORMER "DJ Shadowzone"
INDEX 01 54:43:83
TRACK 12 AUDIO
TITLE "Warmduscher - Hardcore Will Never die (Derb remix)"
PERFORMER "DJ Shadowzone"
INDEX 01 60:26:07
TRACK 13 AUDIO
TITLE "Donkey Rollers - Motherfuck (Dj Zany remix)"
PERFORMER "DJ Shadowzone"
INDEX 01 66:38:98
TRACK 14 AUDIO
TITLE "Brain Ovulation - Only kick (Rushin Mix)"
PERFORMER "DJ Shadowzone"
INDEX 01 70:37:14

-------------------------------------------------

Als ik deze in Nero Burning rom open.. geeft ie aan dat er een fout op lijn 39 zit

-------------------------------------
TRACK 09 AUDIO
TITLE "Dj Stardust - Stompin Jack Flash (Gaida remix)"
PERFORMER "DJ Shadowzone"
INDEX 01 41:51:89 <--- Lijn 39
-----------------------------------------

Ik zie hier niets fouts aan :S Hoop dat iemand me kan helpen :D Want ik wil natuurlijk zo snel mogelijk m'n eigen gemixte cd'tje klaar hebben :D

Thnxxx
laatste aanpassing
nogal wiedes, 89 seconden passen niet in 1 minuut..

you're welcome :-)
laatste aanpassing
Pasqi: Dat zijn de miliseconde :)

Zoals hier:

---------------------
TITLE "Atlantic Wave - The Creation (Original Banging remix)"
PERFORMER "DJ Shadowzone"
INDEX 01 16:37:70 <-------
------------------------------

Dus dat kan 't probleem niet zijn..
geeft nie :D

Kan iedereen gebeuren :P

Maja ik ben er nog steeds niet uit.. zit er al een hele tijd meej te kloten :(
cd mate gebruiken, dan hebbie die cue niet eens nodig...­ De bin is dan genoeg.­
Hmmm ik heb de .cue persee nodig.. Dus da's geen optie.. :S Anybody?
heb je wel op jouw systeem uberhaupt al een x .­cue kunnen gebruiken?
Zo ziet een goeie cue er uit:

FILE "­01-dj_­tiesto-impulz_­outdoor_­(blackhole)_­live_­30-06-2002-1real.­mp3"­ MP3
TRACK 01 AUDIO
TITLE "­Sirius (DJ Tiesto mix)"­
PERFORMER "­Subtle by Design"­
INDEX 01 00:00:00
TRACK 02 AUDIO
TITLE "­ID"­
INDEX 01 07:24:00
TRACK 03 AUDIO
TITLE "­The Sound Of Goodbye (Robbie Rivera Remix)"­
PERFORMER "­Perpetuous Dreamer"­
INDEX 01 12:50:00
TRACK 04 AUDIO
TITLE "­Song To The Siren (Jean Philippe Dirty South Mix)"­
PERFORMER "­Barraka"­
INDEX 01 18:00:00
TRACK 05 AUDIO
TITLE "­Invading Privately (29 Palms Remix)"­
PERFORMER "­Mach 747"­
INDEX 01 26:04:00
TRACK 06 AUDIO
TITLE "­Activate"­
PERFORMER "­Accessive Rhythm"­
INDEX 01 32:22:00
TRACK 07 AUDIO
TITLE "­Carrera 2"­
PERFORMER "­Three Drives"­
INDEX 01 37:16:00
TRACK 08 AUDIO
TITLE "­Free Your Mind"­
PERFORMER "­Saphire Cut"­
INDEX 01 43:21:00
TRACK 09 AUDIO
TITLE "­Solarcoaster"­
PERFORMER "­Solar Stone"­
INDEX 01 49:18:00
TRACK 10 AUDIO
TITLE "­Southern Sun (DJ Tiesto Remix)"­
PERFORMER "­Paul Oakenfold"­
INDEX 01 54:08:00
TRACK 11 AUDIO
TITLE "­The Day After"­
PERFORMER "­Flash"­
INDEX 01 61:17:00


Wel wat anders dan die van jou dus
%) me tabs zijn weg
heb je wel de verwijzing naar de muziek file op de computer ? die heb je wel bij bv wincdr nodig ...­
hij bedoelt cdrwin :P
.cue files heb ik altijd al kunnen branden.. ook met Nero...

Het gekke is als ik vanaf lijn39 alles delete dan brand hij gewoon de .cue file.. Terwijl er niks fout is aan lijn 39 :S Met allerlei brandprogramma's heb ik 't zelfde probleem :(
Misschien is er een probleem met je mp3 zelf.. dat er ergens na de 40 minuten een bugje in zit ofzow... maar dat zal wel weer niet :-P
Nou ik heb 't ook al geprobeerd door een andere mp3 (liveset) te pakken en daar dezelfde .cue file voor te gebruiken.. en alweer dezelfde foutmelding.. Ook bij iemand anders op de pc :(
Problem solved! :)

Bij de miliseconde mag 't getal niet boven de 75 liggen..

Dit moet je maar net ff weten :S

Case closed!! and thnx for your help ;)