Partyflock

Cue filetje schrijven

 
Forumonderwerp · 10025
Ok, ik heb ff hulp nodig.
Ik wil dus voor een bepaalde mp3 een cuefile schrijven, en had dit ook gedaan. Nou wil het feit dat het een mix is en ik dus GEEN pauzes tussen de nummers wil hebben.

Weet iemand wat ik hiervoor moet doen/schrijven?
graag met een voorbeeldje, ik ben nogal dom... :P
Flatgenoot gebruikte daar altijd vaag programma voor om die MP3's aan elkaar te plakken, dan was het dus werkelijk weer 1 geheel en hoor je die pauzes niet. Komt het niet meer neer op een Cue File, maar volgens mij is dat ook niet de oplossing voor die kleine stiltes, aangezien je altijd wel van die stiltes hebt.

Andere oplossing zou kunnen zijn zo'n automatische mix plug-in voor WinAmp. Die laat 2 nummers in elkaar overvloeien, zelfs als ze niet bij elkaar horen, komt een soort cross fader overheen en je kan zelf instellen over wat voor tijdsbestek die de boel over laat lopen. Als je dat nu op ongeveer tijd=0 zet, perhaps dat 't dan ook al werkt... succes! :)
Ey Xypz:

PERFORMER "­VA"­
TITLE "­Thunderdome 2002 Part 1"­
FILE "­101.­mp3"­ MP3
TRACK 01 AUDIO
TITLE "­Ladies First"­
PERFORMER "­Lady Dana"­
INDEX 01 00:00:00
TRACK 02 AUDIO
TITLE "­Parasomnia"­
PERFORMER "­EnzymeX"­
INDEX 01 04:53:36
TRACK 03 AUDIO
TITLE "­Drowned Memories"­
PERFORMER "­Catscan vs.­ Sidewinder"­
INDEX 01 08:56:54
TRACK 04 AUDIO
TITLE "­We Have Arrived (Miro Remix)"­
PERFORMER "­Mescalinum United"­
INDEX 01 13:51:48
TRACK 05 AUDIO
TITLE "­Frozen"­
PERFORMER "­Manu le Malin"­
INDEX 01 18:56:66
TRACK 06 AUDIO
TITLE "­Let's Pray"­
PERFORMER "­Ki-real"­
INDEX 01 21:56:12
TRACK 07 AUDIO
TITLE "­Someone To Hate"­
PERFORMER "­Dj Promo"­
INDEX 01 26:18:41
TRACK 08 AUDIO
TITLE "­Far Beyond The Triumphants"­
PERFORMER "­Armageddon Project"­
INDEX 01 31:08:35
TRACK 09 AUDIO
TITLE "­Wagon 4"­
PERFORMER "­N-Vitral"­
INDEX 01 34:56:29
TRACK 10 AUDIO
TITLE "­The Smell Of Fear"­
PERFORMER "­Leviathan vs.­ Dr.­ Cannard"­
INDEX 01 39:15:74
TRACK 11 AUDIO
TITLE "­E-Ville"­
PERFORMER "­E-man"­
INDEX 01 44:23:18
TRACK 12 AUDIO
TITLE "­Revolting Against"­
PERFORMER "­Rude Awakening"­
INDEX 01 49:11:22
TRACK 13 AUDIO
TITLE "­Gratt"­
PERFORMER "­N-vitral"­
INDEX 01 53:16:29
TRACK 14 AUDIO
TITLE "­Freaked Out Of Acid"­
PERFORMER "­The Vinyl Junk"­
INDEX 01 58:09:57
TRACK 15 AUDIO
TITLE "­Beat Ya Ass"­
PERFORMER "­Nukom"­
INDEX 01 62:09:04
TRACK 16 AUDIO
TITLE "­Soundz From Drokz"­
PERFORMER "­Drokz"­
INDEX 01 66:16:30
TRACK 17 AUDIO
TITLE "­Ascendus Avernum"­
PERFORMER "­Dolphin &­ Tox"­
INDEX 01 70:14:23

Nu moet je gewoon ff de titels,tracknamen,Naja in ieder geval de Indexen van de nummers veranderen in de tijden die jij wilt.­En de rest....­
Of ben ik nou Dom:/?

Ach ik brand al 1,5 me mixxen hetzelfde.
WinSplit.
Knip het in 15 stukken
80min
Zonodig audio wat versterken,hups branden.
Begrijp die hele .Cue file "Rage" niet zo en bij mijn weten werkt het niet in Nero?!
gewoon de hele zooi in dancemaker raggen alles achter elkaar zetteh en een mix makeh :D heb zelf ook probereh mixje te maken ( enzyme/viper-bulletproof:D/stunned guys dana z vago :S maar ik zit met het probleem van hoe knal ik die online :S zodat andere kenneh downloaden :S?
gewoon in nero.

je neemt de eigenschappen van een track,
dan klik je op het tabblad split en voilá :D
Oke, zo'n lijstje had ik dus zelf al, maar CDRWin zet er dan toch pauzes van 2 seconde in....­

alleen DAAR wil ik een oplossing voor aub...­
Dan moet je kijken of je de pauze op 0 sec.­ kan instellen of dattie de pauzes helemaal verwijderd.­
Nero!! zoals GSGabba al zegt! eigenschappen en dan splits en indexes! gaat hij ff rekenen en is de tabel klaar.­

Open je je mix ff en luister je wanneer je een nieuw nummer wil hebben! dan klik je in grafiek en doe split

daarna edit split en daarin geef je de gewenste minuten en seconden en zelfs millisecs mocht je dat willen.­

druk je op ok als je klaar bent!

en dan selecteer je vanaf nummer 2 alle nummers.­ Doe je properties of en dan doe je pauze die standaard op 2 staat veranderen in 0 en dan apply en klaar is Xypzo!
NERO BURNING ROM 5+­